extratorrent - A Fan Made Alternative Login   |   Register
Important Information
Registrations are open now
-------------------------------------

Please click here to register with Extratorrent2 to recieve latest updates, add bookmarks and to post comments.

Friends
Friends

1) ProxyFix

Extratorrent2 > Categories > Movies > Fifty Shades Darker (2017) x 1600 (2160p) (Color Enhanced) DD5.1 x265 Phun Psyz torrent


Browse Movies torrents

Fifty Shades Darker (2017) x 1600 (2160p) (Color Enhanced) DD5.1 x265 Phun Psyz torrent


Fifty Shades Darker (2017)
Name: Fifty Shades Darker
Released Year: 2017
Runtime: 118 mins
Gener: Drama, Romance
Director: James Foley
Country: USA
IMDB Rating: 4.6/10
Plot: While Christian wrestles with his inner demons, Anastasia must confront the anger and envy of the women who came before her.

Download torrent: Download Fifty Shades Darker (2017) x 1600 (2160p) (Color Enhanced) DD5.1 x265 Phun Psyz torrent Magnet link Bookmark Torrent: Fifty Shades Darker (2017) x 1600 (2160p) (Color Enhanced) DD5.1 x265 Phun Psyz   Fifty Shades Darker (2017) x 1600 (2160p) (Color Enhanced) DD5.1 x265 Phun Psyz torrent
Info hash: 36DBDCA9AE3A1D50E67473A44C508707C126FB23
Category: Categories > Movies
Trackers:
View all torrent trackers >
Health:
 seeds: 33 ,  leechers: 15 |  Update >
Torrent language: English English
Total Size: 3.4 GB
Files List:
1    View torrent files >
Uploader:
PhunPsyz
Torrent added: February 1, 2018, 4:51 pm
Tags: Fifty, Shades, Darker, 2017, 2160p, x265, Phun, Psyz
IMDB: http://www.imdb.com/title/tt4465564
Users rating: ---, not rated. please login to rate.

Download Fifty Shades Darker (2017) x 1600 (2160p) (Color Enhanced) DD5.1 x265 Phun Psyz torrent



Torrent Description

www.imdb.com/title/tt4465564/

While Christian wrestles with his inner demons, Anastasia must confront the anger and envy of the women who came before her.

Source: TERMiNAL (13.0 GiB)



Format : Matroska
Format version : Version 4 / Version 2
File size : 3.42 GiB
Duration : 2 h 11 min
Overall bit rate : 3 719 kb/s

Video
ID : 1
Format : HEVC
Format/Info : High Efficiency Video Coding
Format profile : @Main
Codec ID : V_MPEGH/ISO/HEVC
Duration : 2 h 11 min
Bit rate : 3 370 kb/s
Width : 3 840 pixels
Height : 1 600 pixels
Display aspect ratio : 2.40:1
Frame rate mode : Constant
Frame rate : 23.976 (24000/1001) FPS
Color space : YUV
Chroma subsampling : 4:2:0
Bit depth : 8 bits
Bits/(Pixel*Frame) : 0.023
Stream size : 3.09 GiB (91%)

Audio
ID : 2
Format : AC-3
Format/Info : Audio Coding 3
Format settings, Endianness : Big
Codec ID : A_AC3
Duration : 2 h 11 min
Bit rate mode : Constant
Bit rate : 320 kb/s
Channel(s) : 6 channels
Channel positions : Front: L C R, Side: L R, LFE
Sampling rate : 48.0 kHz
Frame rate : 31.250 FPS (1536 SPF)
Bit depth : 16 bits
Compression mode : Lossy
Stream size : 301 MiB (9%)
Language : English

Text #1
ID : 3
Format : PGS
Muxing mode : zlib
Codec ID : S_HDMV/PGS
Codec ID/Info : Picture based subtitle format used on BDs/HD-DVDs
Duration : 2 h 8 min
Bit rate : 10.4 kb/s
Count of elements : 3342
Stream size : 9.62 MiB (0%)
Title : SDH
Language : English
Default : No
Forced : No

Text #2
ID : 4
Format : PGS
Muxing mode : zlib
Codec ID : S_HDMV/PGS
Codec ID/Info : Picture based subtitle format used on BDs/HD-DVDs
Duration : 2 h 11 min
Bit rate : 8 303 b/s
Count of elements : 2928
Stream size : 7.78 MiB (0%)
Language : Spanish
Default : No
Forced : No

Text #3
ID : 5
Format : PGS
Muxing mode : zlib
Codec ID : S_HDMV/PGS
Codec ID/Info : Picture based subtitle format used on BDs/HD-DVDs
Duration : 2 h 11 min
Bit rate : 8 451 b/s
Count of elements : 2904
Stream size : 7.92 MiB (0%)
Language : French
Default : No
Forced : No

Menu
00:00:00.000 : en:00:00:00.000
00:05:47.722 : en:00:05:47.722
00:13:14.460 : en:00:13:14.460
00:18:18.055 : en:00:18:18.055
00:24:45.359 : en:00:24:45.359
00:29:19.675 : en:00:29:19.675
00:37:25.201 : en:00:37:25.201
00:44:31.794 : en:00:44:31.794
00:50:22.394 : en:00:50:22.394
00:57:58.058 : en:00:57:58.058
01:06:01.958 : en:01:06:01.958
01:11:54.936 : en:01:11:54.936
01:24:49.876 : en:01:24:49.876
01:30:39.851 : en:01:30:39.851
01:35:40.651 : en:01:35:40.651
01:41:00.221 : en:01:41:00.221
01:48:53.735 : en:01:48:53.735
01:55:57.701 : en:01:55:57.701
02:01:38.374 : en:02:01:38.374
02:05:32.149 : en:02:05:32.149


Download Fifty Shades Darker (2017) x 1600 (2160p) (Color Enhanced) DD5.1 x265 Phun Psyz torrent


Related Torrents


Comments   (please login to add your comment!)


Home - Browse Torrents

Made with love by an Extratorrent Fan!