extratorrent - A Fan Made Alternative Login   |   Register
Important Information
Registrations are open now
-------------------------------------

Please click here to register with Extratorrent2 to recieve latest updates, add bookmarks and to post comments.

Friends
Friends

1) ProxyFix

Extratorrent2 > Categories > TV > The Story of Scotdisc (720p HD, soft Eng subs) torrent


Browse TV torrents

The Story of Scotdisc (720p HD, soft Eng subs) torrent


Download torrent: Download The Story of Scotdisc (720p HD, soft Eng subs) torrent Magnet link Bookmark Torrent: The Story of Scotdisc (720p HD, soft Eng subs)   The Story of Scotdisc (720p HD, soft Eng subs) torrent
Info hash: CE5F0BA402F99A7B5FFA21BB2C6A936185C3B806
Category: Categories > TV
Trackers:
View all torrent trackers >
Health:
 seeds: 3 ,  leechers: 3 |  Update >
Torrent language: English English
Total Size: 1,023.5 MB
Files List:
9    View torrent files >
Uploader:
ElsonRoa
Torrent added: July 28, 2018, 6:30 am
Users rating: ---, not rated. please login to rate.

Download The Story of Scotdisc (720p HD, soft Eng subs) torrent



Torrent Description

The Story of Scotdisc (720p HD, soft Eng subs)

Scotdisc Records is one of Scotland's most successful labels, embracing the tartan Scottish music tradition and selling millions of records and videos over its 40 years. It's the story of Dougie Stevenson and Bill Garden, who have recorded many iconic artists like Sydney Devine, Lena Martell, Stuart Anderson Jr, Tommy Scott, The Alexander Brothers, Eve Graham and The Royal Scots Dragoon Guards. The Kilsyth-based label targeted the tourist market and has created an incredible catalogue with a style of music that has been unaffected by musical trends.

First broadcast: 3 January 2018
Duration: 1 hour



Media info:
General
Format : MPEG-4
Format profile : Base Media
Codec ID : isom (isom/iso2/avc1/mp41)
File size : 1 022 MiB
Duration : 59mn 0s
Overall bit rate mode : Variable
Overall bit rate : 2 423 Kbps
Writing application : Lavf57.25.100

Video
ID : 1
Format : AVC
Format/Info : Advanced Video Codec
Format profile :
Format settings, CABAC : Yes
Format settings, ReFrames : 2 frames
Codec ID : avc1
Codec ID/Info : Advanced Video Coding
Duration : 59mn 0s
Bit rate mode : Variable
Bit rate : 2 324 Kbps
Maximum bit rate : 3 500 Kbps
Width : 1 280 pixels
Height : 720 pixels
Display aspect ratio : 16:9
Frame rate mode : Constant
Frame rate : 25.000 fps
Color space : YUV
Chroma subsampling : 4:2:0
Bit depth : 8 bits
Scan type : Progressive
Bits/(Pixel*Frame) : 0.101
Stream size : 981 MiB (96%)

Audio
ID : 2
Format : AAC
Format/Info : Advanced Audio Codec
Format profile : LC
Codec ID : 40
Duration : 58mn 59s
Bit rate mode : Variable
Bit rate : 93.4 Kbps
Maximum bit rate : 97.5 Kbps
Channel(s) : 2 channels
Channel positions : Front: L R
Sampling rate : 48.0 KHz
Frame rate : 46.875 fps (1024 spf)
Compression mode : Lossy
Stream size : 39.4 MiB (4%)



Download The Story of Scotdisc (720p HD, soft Eng subs) torrent


Related Torrents


Comments   (please login to add your comment!)

kendra 720p     madison ivy nicole     how to make money     csr racing 2     february 20 2018     under review     the flash     divine     first time tight     kirstie s01e01     sub ita 2017     deadpool 2     retail therapy     va hits     bull 2016 s01e11     brett michaels     festa in casa muppet     1080p etrg     the last ship s03e07     igo primo     hairy asian     murder in     bang bang 2016     s02     


Home - Browse Torrents

Made with love by an Extratorrent Fan!